<?xml version="1.0" standalone="no"?>
<!DOCTYPE svg PUBLIC "-//W3C//DTD SVG 1.1//EN" "http://www.w3.org/Graphics/SVG/1.1/DTD/svg11.dtd" >
<svg xmlns="http://www.w3.org/2000/svg" xmlns:xlink="http://www.w3.org/1999/xlink" version="1.1">
<metadata>
Created by FontForge 20190801 at Mon Dec 16 13:10:39 2002
 By www-data
(C)2002 House Industries/Brand Design Co. Inc.
</metadata>
<defs>
<font id="NeutraTextBook" horiz-adv-x="200" >
  <font-face 
    font-family="NeutraTextBook"
    font-weight="500"
    font-stretch="normal"
    units-per-em="1000"
    panose-1="2 0 0 0 0 0 0 0 0 0"
    ascent="800"
    descent="-200"
    x-height="414"
    cap-height="680"
    bbox="-57 -232 1083 946"
    underline-thickness="20"
    underline-position="-143"
    unicode-range="U+000D-FB02"
  />
<missing-glyph horiz-adv-x="500" 
 />
    <glyph glyph-name="fi" unicode="fi" horiz-adv-x="503" 
d="M392 534q-20 0 -35 14t-15 35t15 35.5t35 14.5t35 -14.5t15 -35.5t-15 -35t-35 -14zM101 0v355h-67v59h67v188q0 67 31 100t85 33q64 0 100 -45l-44 -42q-22 24 -51 24q-51 0 -51 -70v-188h256v-414h-70v355h-186v-355h-70z" />
    <glyph glyph-name="fl" unicode="fl" horiz-adv-x="507" 
d="M101 0v355h-67v59h67v152q0 80 47.5 124.5t116.5 44.5t115.5 -42t46.5 -123v-570h-70v565q0 107 -92 107q-43 0 -68.5 -26.5t-25.5 -80.5v-151h106v-59h-106v-355h-70z" />
    <glyph glyph-name="ff" unicode="ff" horiz-adv-x="572" 
d="M101 0v355h-67v59h67v168q0 67 30.5 100t83.5 33q68 0 102 -44l-45 -44q-20 25 -50 25q-51 0 -51 -70v-168h186v188q0 67 31 100t84 33q70 0 105 -51l-46 -41q-22 29 -53 29q-51 0 -51 -70v-188h111v-59h-111v-355h-70v355h-186v-355h-70z" />
    <glyph glyph-name="ffi" unicode="ffi" horiz-adv-x="759" 
d="M648 534q-20 0 -35 14t-15 35t15 35.5t35 14.5t35 -14.5t15 -35.5t-15 -35t-35 -14zM101 0v355h-67v59h67v168q0 67 30.5 100t83.5 33q68 0 102 -44l-45 -44q-20 25 -50 25q-51 0 -51 -70v-168h186v188q0 67 31 100t85 33q64 0 100 -45l-44 -42q-22 24 -51 24
q-51 0 -51 -70v-188h256v-414h-70v355h-186v-355h-70v355h-186v-355h-70z" />
    <glyph glyph-name="ffl" unicode="ffl" horiz-adv-x="763" 
d="M101 0v355h-67v59h67v168q0 67 30.5 100t83.5 33q68 0 102 -44l-45 -44q-20 25 -50 25q-51 0 -51 -70v-168h186v152q0 80 47.5 124.5t116.5 44.5t115.5 -42t46.5 -123v-570h-70v565q0 107 -92 107q-43 0 -68.5 -26.5t-25.5 -80.5v-151h106v-59h-106v-355h-70v355h-186
v-355h-70z" />
    <glyph glyph-name=".notdef" horiz-adv-x="500" 
 />
    <glyph glyph-name=".notdef" horiz-adv-x="500" 
 />
    <glyph glyph-name=".null" horiz-adv-x="0" 
 />
    <glyph glyph-name="nonmarkingreturn" horiz-adv-x="333" 
 />
    <glyph glyph-name="CR" unicode="&#xd;" horiz-adv-x="237" 
 />
    <glyph glyph-name="space" unicode=" " horiz-adv-x="237" 
 />
    <glyph glyph-name="exclam" unicode="!" horiz-adv-x="244" 
d="M95 190l-12 490h78l-12 -490h-54zM122 -7q-21 0 -37 15.5t-16 37.5q0 23 16 38.5t37 15.5t37 -15.5t16 -38.5q0 -22 -16 -37.5t-37 -15.5z" />
    <glyph glyph-name="quotedbl" unicode="&#x22;" horiz-adv-x="283" 
d="M178 470l-9 210h74l-8 -210h-57zM48 470l-8 210h74l-8 -210h-58z" />
    <glyph glyph-name="numbersign" unicode="#" horiz-adv-x="461" 
d="M68 176l28 108h-67v56h80l27 108h-72v56h86l27 109h58l-27 -109h99l28 109h58l-27 -109h66v-56h-80l-27 -108h71v-56h-86l-26 -108h-59l27 108h-99l-26 -108h-59zM167 340h100l27 108h-99z" />
    <glyph glyph-name="dollar" unicode="$" horiz-adv-x="436" 
d="M191 -6q-63 6 -108 37.5t-65 72.5l54 29q39 -71 119 -83v187q-75 21 -110.5 55t-35.5 89q0 53 40 89.5t106 40.5v106h51v-107q47 -7 82 -31.5t53 -55.5l-50 -32q-29 51 -85 63v-166l6 -2q80 -24 118 -59.5t38 -92.5q0 -62 -42.5 -99.5t-119.5 -41.5v-112h-51v113z
M191 456q-80 -8 -80 -72q0 -31 18 -48.5t62 -31.5v152zM242 49q47 4 71 25t24 55q0 36 -21 56t-74 36v-172z" />
    <glyph glyph-name="percent" unicode="%" horiz-adv-x="766" 
d="M178 218q-61 0 -105.5 42t-44.5 105t44.5 105t105.5 42t105 -42t44 -105t-44 -105t-105 -42zM191 0l315 504h70l-315 -504h-70zM589 -8q-61 0 -105 41.5t-44 104.5t44 105t105 42t105 -42t44 -105t-44 -104.5t-105 -41.5zM178 273q37 0 62.5 26t25.5 66q0 41 -25.5 66.5
t-62.5 25.5t-63 -25.5t-26 -66.5q0 -40 26 -66t63 -26zM589 46q37 0 62.5 26t25.5 66t-25.5 66t-62.5 26t-62.5 -26t-25.5 -66t25.5 -66t62.5 -26z" />
    <glyph glyph-name="ampersand" unicode="&#x26;" horiz-adv-x="654" 
d="M316 385l150 -182q29 70 29 165h69q0 -126 -51 -222l120 -146h-87l-73 88q-85 -96 -214 -96q-99 0 -157.5 50.5t-58.5 134.5q0 77 43.5 124.5t131.5 95.5l-12 15q-55 68 -55 136q0 60 40 100t106 40q64 0 104 -39.5t40 -99.5q0 -92 -125 -164zM279 430q96 56 96 119
q0 36 -21.5 57.5t-55.5 21.5q-36 0 -57 -21t-21 -58q0 -48 40 -96zM430 140l-176 213q-68 -37 -102 -75.5t-34 -96.5q0 -59 37 -92t104 -33q107 0 171 84z" />
    <glyph glyph-name="quotesingle" unicode="'" horiz-adv-x="154" 
d="M48 470l-8 210h74l-8 -210h-58z" />
    <glyph glyph-name="parenleft" unicode="(" horiz-adv-x="288" 
d="M216 -136q-172 176 -172 427t172 427l44 -36q-143 -167 -143 -391t143 -391z" />
    <glyph glyph-name="parenright" unicode=")" horiz-adv-x="288" 
d="M71 -136l-43 36q142 166 142 391t-142 391l43 36q173 -177 173 -427t-173 -427z" />
    <glyph glyph-name="asterisk" unicode="*" horiz-adv-x="394" 
d="M165 375l15 125l-98 -73l-31 54l117 47l-117 47l31 54l98 -72l-15 123h63l-15 -123l99 72l31 -54l-118 -47l117 -47l-30 -54l-99 73l15 -125h-63z" />
    <glyph glyph-name="plus" unicode="+" horiz-adv-x="373" 
d="M154 96v125h-115v62h115v125h64v-125h116v-62h-116v-125h-64z" />
    <glyph glyph-name="comma" unicode="," horiz-adv-x="202" 
d="M44 -112l39 111q-36 12 -36 49q0 22 16.5 38t37.5 16q22 0 38 -16t16 -38q0 -18 -12 -40l-60 -120h-39z" />
    <glyph glyph-name="hyphen" unicode="-" horiz-adv-x="286" 
d="M46 200v63h193v-63h-193z" />
    <glyph glyph-name="hyphen" unicode="&#xad;" horiz-adv-x="286" 
d="M46 200v63h193v-63h-193z" />
    <glyph glyph-name="period" unicode="." horiz-adv-x="202" 
d="M101 -7q-21 0 -37.5 16t-16.5 39t16 38.5t38 15.5t38 -15.5t16 -38.5t-16 -39t-38 -16z" />
    <glyph glyph-name="slash" unicode="/" horiz-adv-x="428" 
d="M15 -128l300 850h70l-300 -850h-70z" />
    <glyph glyph-name="zero" unicode="0" horiz-adv-x="611" 
d="M305 -8q-108 0 -186 75t-78 185q0 112 78 186t186 74q109 0 187 -74t78 -186q0 -110 -78.5 -185t-186.5 -75zM305 55q81 0 136.5 56t55.5 141q0 86 -55.5 141.5t-136.5 55.5t-135.5 -55t-54.5 -142q0 -85 54.5 -141t135.5 -56z" />
    <glyph glyph-name="one" unicode="1" horiz-adv-x="284" 
d="M135 0v444h-111v60h182v-504h-71z" />
    <glyph glyph-name="two" unicode="2" horiz-adv-x="471" 
d="M29 0v9l203 185q56 51 81 86.5t25 74.5q0 45 -27 69t-71 24q-91 0 -125 -102l-64 18q18 69 68.5 108.5t119.5 39.5q79 0 125 -42t46 -112q0 -48 -31 -94.5t-91 -101.5l-76 -69q-8 -8 -21 -16.5t-22 -13.5l-9 -5q37 3 56 3h207v-61h-394z" />
    <glyph glyph-name="three" unicode="3" horiz-adv-x="494" 
d="M238 -103q-76 0 -132 35t-84 95l62 29q45 -96 154 -96q60 0 101 38.5t41 105.5t-39.5 103t-108.5 36q-45 0 -81 -18l-7 10l149 180l31 33q-26 -4 -48 -4h-202v60h364v-7l-144 -173l-30 -27q81 -2 135.5 -55t54.5 -139q0 -91 -61 -148.5t-155 -57.5z" />
    <glyph glyph-name="four" unicode="4" horiz-adv-x="522" 
d="M413 80h75v-59h-75v-115h-70v115h-322v34l382 459h10v-434zM343 80v227l3 53q-16 -24 -30 -42l-166 -205l-36 -36q26 3 48 3h181z" />
    <glyph glyph-name="five" unicode="5" horiz-adv-x="485" 
d="M231 -103q-72 0 -123.5 30.5t-76.5 78.5l59 32q44 -78 141 -78q63 0 102 39.5t39 102.5q0 65 -37 102.5t-107 37.5q-77 0 -140 -53l-9 3v312h328v-60h-267v-167q41 26 101 26q91 0 148 -56.5t57 -144.5q0 -89 -59.5 -147t-155.5 -58z" />
    <glyph glyph-name="six" unicode="6" horiz-adv-x="508" 
d="M255 -8q-91 0 -152 56.5t-61 144.5q0 70 65 166l170 251h79l-137 -203q-7 -9 -19 -22t-20 -21l-9 -9q45 36 100 36q84 0 139.5 -55.5t55.5 -141.5q0 -88 -60 -145t-151 -57zM254 54q62 0 101.5 40t39.5 100q0 63 -38 101.5t-103 38.5q-63 0 -102 -40.5t-39 -99.5
q0 -61 38.5 -100.5t102.5 -39.5z" />
    <glyph glyph-name="seven" unicode="7" horiz-adv-x="451" 
d="M76 -94l252 538h-295v60h390v-9l-275 -589h-72z" />
    <glyph glyph-name="eight" unicode="8" horiz-adv-x="521" 
d="M260 -8q-97 0 -158.5 53t-61.5 134q0 62 37 105t98 61q-87 34 -87 123q0 63 49 106.5t123 43.5q75 0 124 -43.5t49 -106.5q0 -88 -87 -123q61 -18 98 -61t37 -105q0 -81 -61.5 -134t-159.5 -53zM260 372q47 0 75 25.5t28 67.5q0 41 -29 67.5t-74 26.5q-46 0 -74.5 -26.5
t-28.5 -67.5q0 -42 28 -67.5t75 -25.5zM260 55q66 0 106.5 35.5t40.5 92.5q0 58 -40.5 94.5t-106.5 36.5t-106.5 -36.5t-40.5 -94.5t40 -93t107 -35z" />
    <glyph glyph-name="nine" unicode="9" horiz-adv-x="514" 
d="M171 -94l128 191q7 11 18.5 23t19.5 19l8 7q-43 -37 -102 -37q-87 0 -144 55.5t-57 143.5q0 87 61.5 145.5t153.5 58.5t153.5 -56.5t61.5 -146.5q0 -42 -16 -80t-50 -89l-156 -234h-79zM256 165q64 0 104 41.5t40 101.5q0 61 -39.5 101t-103.5 40t-104 -39.5t-40 -101.5
q0 -64 39 -103.5t104 -39.5z" />
    <glyph glyph-name="colon" unicode=":" horiz-adv-x="212" 
d="M106 217q-21 0 -37.5 16t-16.5 39t16 38.5t38 15.5t38 -15.5t16 -38.5t-16 -39t-38 -16zM106 -7q-21 0 -37.5 16t-16.5 39t16 38.5t38 15.5t38 -15.5t16 -38.5t-16 -39t-38 -16z" />
    <glyph glyph-name="semicolon" unicode=";" horiz-adv-x="212" 
d="M106 217q-21 0 -37.5 16t-16.5 39t16 38.5t38 15.5t38 -15.5t16 -38.5t-16 -39t-38 -16zM49 -112l39 111q-36 12 -36 49q0 22 16.5 38t37.5 16q22 0 38 -16t16 -38q0 -18 -12 -40l-60 -120h-39z" />
    <glyph glyph-name="semicolon" unicode="&#x37e;" horiz-adv-x="212" 
d="M106 217q-21 0 -37.5 16t-16.5 39t16 38.5t38 15.5t38 -15.5t16 -38.5t-16 -39t-38 -16zM49 -112l39 111q-36 12 -36 49q0 22 16.5 38t37.5 16q22 0 38 -16t16 -38q0 -18 -12 -40l-60 -120h-39z" />
    <glyph glyph-name="less" unicode="&#x3c;" horiz-adv-x="356" 
d="M307 94l-271 145v10l271 143v-64l-168 -84l168 -85v-65z" />
    <glyph glyph-name="equal" unicode="=" horiz-adv-x="371" 
d="M42 282v61h287v-61h-287zM42 152v62h287v-62h-287z" />
    <glyph glyph-name="greater" unicode="&#x3e;" horiz-adv-x="356" 
d="M49 94v64l168 84l-168 85v65l271 -145v-10z" />
    <glyph glyph-name="question" unicode="?" horiz-adv-x="469" 
d="M174 187v176h33q65 0 102.5 38t37.5 96q0 59 -34.5 93.5t-90.5 34.5q-50 0 -82 -21t-55 -67l-58 30q25 59 75.5 90t119.5 31q88 0 142.5 -52.5t54.5 -138.5q0 -79 -49.5 -131t-129.5 -58v-121h-66zM206 -7q-21 0 -37 15.5t-16 37.5q0 23 16 38.5t37 15.5t37 -15.5
t16 -38.5q0 -22 -16 -37.5t-37 -15.5z" />
    <glyph glyph-name="at" unicode="@" horiz-adv-x="886" 
d="M448 -206q-170 0 -284.5 109.5t-114.5 285.5q0 170 116.5 283.5t281.5 113.5q169 0 279.5 -105.5t110.5 -263.5q0 -111 -42.5 -167t-112.5 -56q-100 0 -116 94q-43 -96 -144 -96q-75 0 -125 54t-50 137t50 138.5t124 55.5q92 0 133 -86l-2 76h69v-231q0 -44 14.5 -66
t48.5 -22q41 0 66 41.5t25 126.5q0 138 -89.5 226t-238.5 88q-145 0 -238.5 -97.5t-93.5 -243.5q0 -148 91.5 -244t241.5 -96q90 0 164 40l26 -50q-81 -45 -190 -45zM436 50q50 0 84 38.5t34 94.5t-34 95.5t-84 39.5q-52 0 -85 -39t-33 -96t33 -95t85 -38z" />
    <glyph glyph-name="A" unicode="A" horiz-adv-x="656" 
d="M37 0l282 687h12l288 -687h-76l-46 114h-344l-45 -114h-71zM178 176h293l-120 302l-26 81q-14 -49 -27 -81z" />
    <glyph glyph-name="B" unicode="B" horiz-adv-x="609" 
d="M93 0v680h231q91 0 139 -47t48 -120q0 -106 -88 -135q66 -16 103 -63t37 -115q0 -89 -55 -144.5t-160 -55.5h-255zM165 402h164q57 0 83.5 29t26.5 78q0 107 -120 107h-154v-214zM165 64h178q75 0 111 37.5t36 100.5t-38 100.5t-113 37.5h-174v-276z" />
    <glyph glyph-name="C" unicode="C" horiz-adv-x="726" 
d="M403 -8q-147 0 -248 98t-101 250t101 250t248 98q182 0 270 -132l-55 -40q-72 107 -215 107q-119 0 -196.5 -80.5t-77.5 -202.5t77.5 -202.5t196.5 -80.5q145 0 224 114l56 -39q-46 -67 -118 -103.5t-162 -36.5z" />
    <glyph glyph-name="D" unicode="D" horiz-adv-x="680" 
d="M93 0v680h165q170 0 269 -92.5t99 -247.5t-99 -247.5t-269 -92.5h-165zM165 65h88q146 0 221.5 74.5t75.5 200.5t-75.5 200.5t-221.5 74.5h-88v-550z" />
    <glyph glyph-name="E" unicode="E" horiz-adv-x="580" 
d="M93 0v680h414v-64h-342v-319h305v-63h-305v-170h356v-64h-428z" />
    <glyph glyph-name="F" unicode="F" horiz-adv-x="556" 
d="M93 0v680h409v-64h-337v-319h306v-66h-306v-231h-72z" />
    <glyph glyph-name="G" unicode="G" horiz-adv-x="743" 
d="M410 -8q-153 0 -254.5 97.5t-101.5 250.5q0 152 100 250t250 98q155 0 237 -88l-49 -49q-69 72 -188 72q-120 0 -197.5 -80.5t-77.5 -202.5t79 -202.5t202 -80.5q124 0 201 62v140h-202v64h270v-237q-96 -94 -269 -94z" />
    <glyph glyph-name="H" unicode="H" horiz-adv-x="694" 
d="M93 0v680h72v-383h364v383h72v-680h-72v231h-364v-231h-72z" />
    <glyph glyph-name="I" unicode="I" horiz-adv-x="265" 
d="M96 0v680h73v-680h-73z" />
    <glyph glyph-name="J" unicode="J" horiz-adv-x="483" 
d="M209 -8q-121 0 -176 102l59 37q43 -74 114 -74q52 0 82 30.5t30 93.5v499h73v-501q0 -91 -50 -139t-132 -48z" />
    <glyph glyph-name="K" unicode="K" horiz-adv-x="607" 
d="M159 265q32 62 49 84l257 331h81l-252 -328l279 -352h-89l-237 299l-82 -99v-200h-72v680h72v-322q0 -27 -6 -93z" />
    <glyph glyph-name="L" unicode="L" horiz-adv-x="527" 
d="M93 0v680h72v-616h321v-64h-393z" />
    <glyph glyph-name="M" unicode="M" horiz-adv-x="837" 
d="M93 0v688h10l316 -395l314 395h11v-688h-70v449l3 78q-26 -44 -48 -71l-206 -260h-12l-203 260l-49 71q4 -47 4 -78v-449h-70z" />
    <glyph glyph-name="N" unicode="N" horiz-adv-x="713" 
d="M608 -7l-406 480l-47 63q6 -48 6 -77v-459h-68v687h12l406 -480l47 -63q-5 48 -5 77v459h67v-687h-12z" />
    <glyph glyph-name="O" unicode="O" horiz-adv-x="807" 
d="M403 -8q-147 0 -248 98t-101 250t101 250t248 98q148 0 249 -98t101 -250t-101 -250t-249 -98zM403 57q119 0 197 80.5t78 202.5t-78 202.5t-197 80.5q-118 0 -196 -80.5t-78 -202.5t78 -202.5t196 -80.5z" />
    <glyph glyph-name="P" unicode="P" horiz-adv-x="584" 
d="M93 0v680h154q136 0 208.5 -69t72.5 -187q0 -116 -72.5 -185.5t-208.5 -69.5h-82v-169h-72zM165 232h78q109 0 159.5 51.5t50.5 140.5t-50.5 140.5t-159.5 51.5h-78v-384z" />
    <glyph glyph-name="Q" unicode="Q" horiz-adv-x="807" 
d="M651 89l103 -110l-50 -42l-104 112q-89 -57 -197 -57q-147 0 -248 98t-101 250t101 250t248 98q148 0 249 -98t101 -250q0 -151 -102 -251zM554 99l-103 112l49 42l104 -113q74 79 74 200q0 122 -78 202.5t-197 80.5q-118 0 -196 -80.5t-78 -202.5t78 -202.5t196 -80.5
q86 0 151 42z" />
    <glyph glyph-name="R" unicode="R" horiz-adv-x="596" 
d="M386 209l148 -209h-85l-131 186q-35 -6 -72 -6h-81v-180h-72v680h153q136 0 209 -68.5t73 -182.5q0 -78 -36 -135t-106 -85zM165 243h77q110 0 160.5 50t50.5 136t-51 136.5t-160 50.5h-77v-373z" />
    <glyph glyph-name="S" unicode="S" horiz-adv-x="531" 
d="M266 -8q-168 0 -237 138l60 32q28 -49 68.5 -77.5t106.5 -28.5q61 0 101 31.5t40 84.5q0 49 -30 80.5t-98 61.5l-54 25q-78 35 -114 76.5t-36 109.5q0 73 50.5 118t128.5 45q123 0 184 -102l-58 -36q-46 74 -126 74q-50 0 -79 -26.5t-29 -70.5q0 -43 24 -68.5t84 -53.5
l54 -25q89 -39 130 -86.5t41 -121.5q0 -83 -59 -131.5t-152 -48.5z" />
    <glyph glyph-name="T" unicode="T" horiz-adv-x="556" 
d="M242 0v616h-209v64h490v-64h-209v-616h-72z" />
    <glyph glyph-name="U" unicode="U" horiz-adv-x="662" 
d="M331 -8q-108 0 -176 62.5t-68 177.5v448h72v-443q0 -89 45.5 -135t126.5 -46t126.5 46t45.5 135v443h72v-448q0 -115 -68 -177.5t-176 -62.5z" />
    <glyph glyph-name="V" unicode="V" horiz-adv-x="656" 
d="M324 -7l-287 687h78l187 -461l29 -92q15 58 29 92l186 461h73l-283 -687h-12z" />
    <glyph glyph-name="W" unicode="W" horiz-adv-x="953" 
d="M260 -7l-225 687h77l143 -453l19 -74q11 45 22 74l177 460h12l177 -460l22 -74q10 45 19 74l142 453h73l-224 -687h-12l-183 484l-20 67q-10 -39 -21 -67l-186 -484h-12z" />
    <glyph glyph-name="X" unicode="X" horiz-adv-x="635" 
d="M43 0l233 370l-196 310h82l135 -212l22 -47q10 30 21 47l134 212h79l-195 -310l235 -370h-82l-173 272l-23 48q-10 -30 -21 -48l-172 -272h-79z" />
    <glyph glyph-name="Y" unicode="Y" horiz-adv-x="656" 
d="M294 0v213l-257 467h81l185 -338q7 -12 14 -29t11 -29l4 -11q15 42 29 69l184 338h75l-252 -464v-216h-74z" />
    <glyph glyph-name="Z" unicode="Z" horiz-adv-x="581" 
d="M39 0v11l380 605h-326v64h438v-11l-379 -605h381v-64h-494z" />
    <glyph glyph-name="bracketleft" unicode="[" horiz-adv-x="305" 
d="M76 -128v850h193v-60h-123v-730h123v-60h-193z" />
    <glyph glyph-name="backslash" unicode="\" horiz-adv-x="429" 
d="M344 -128l-301 850h70l301 -850h-70z" />
    <glyph glyph-name="bracketright" unicode="]" horiz-adv-x="305" 
d="M36 -128v60h123v730h-123v60h194v-850h-194z" />
    <glyph glyph-name="asciicircum" unicode="^" horiz-adv-x="417" 
d="M68 463l136 225h9l136 -225h-58l-82 126l-83 -126h-58z" />
    <glyph glyph-name="underscore" unicode="_" horiz-adv-x="256" 
d="M-2 -128v62h260v-62h-260z" />
    <glyph glyph-name="grave" unicode="`" horiz-adv-x="500" 
d="M224 498l-93 193h80l68 -193h-55z" />
    <glyph glyph-name="a" unicode="a" horiz-adv-x="471" 
d="M331 243v10q0 111 -97 111q-76 0 -121 -60l-43 39q59 80 169 80q72 0 117 -43t45 -126v-254h-70l3 62q-47 -70 -137 -70q-69 0 -110.5 32t-41.5 94q0 61 44 93t113 32h129zM331 190h-124q-94 0 -94 -69q0 -72 100 -72q49 0 83.5 24.5t34.5 64.5v52z" />
    <glyph glyph-name="b" unicode="b" horiz-adv-x="551" 
d="M302 -8q-54 0 -96 26.5t-64 70.5l2 -89h-69v722h69v-393q51 94 159 94q85 0 142.5 -61.5t57.5 -153.5q0 -93 -58 -154.5t-143 -61.5zM288 53q65 0 104 43.5t39 111.5q0 67 -39 110t-104 43q-66 0 -106.5 -43t-40.5 -110q0 -68 40.5 -111.5t106.5 -43.5z" />
    <glyph glyph-name="c" unicode="c" horiz-adv-x="467" 
d="M263 -8q-91 0 -153 62t-62 153t62 153.5t153 62.5q102 0 163 -74l-50 -41q-40 53 -113 53q-65 0 -104 -43.5t-39 -110.5t39 -110.5t104 -43.5q74 0 119 54l48 -41q-61 -74 -167 -74z" />
    <glyph glyph-name="d" unicode="d" horiz-adv-x="551" 
d="M249 -8q-85 0 -143 61.5t-58 154.5q0 92 58 153.5t142 61.5q108 0 159 -94v393h69v-722h-69l2 89q-22 -44 -64 -70.5t-96 -26.5zM263 53q66 0 106.5 43.5t40.5 111.5q0 67 -40.5 110t-106.5 43q-65 0 -104 -43t-39 -110q0 -68 39 -111.5t104 -43.5z" />
    <glyph glyph-name="e" unicode="e" horiz-adv-x="516" 
d="M118 184q7 -61 47 -97t107 -36q82 0 131 55l43 -42q-64 -72 -174 -72q-100 0 -162 61.5t-62 153.5q0 91 61.5 153.5t152.5 62.5q98 0 155 -67.5t53 -171.5h-352zM119 237h281q-5 56 -40.5 91.5t-97.5 35.5q-58 0 -96.5 -34.5t-46.5 -92.5z" />
    <glyph glyph-name="f" unicode="f" horiz-adv-x="318" 
d="M101 0v355h-67v59h67v188q0 67 31 100t84 33q70 0 105 -51l-46 -41q-22 29 -53 29q-51 0 -51 -70v-188h111v-59h-111v-355h-70z" />
    <glyph glyph-name="g" unicode="g" horiz-adv-x="471" 
d="M294 414h150v-53h-81q33 -35 33 -85q0 -64 -45 -106t-116 -42q-50 0 -85 19q-34 -9 -34 -42q0 -39 54 -42l106 -8q174 -13 174 -131q0 -68 -59 -107.5t-161 -39.5q-99 0 -155.5 36.5t-56.5 99.5q0 78 98 108q-58 19 -58 77q0 53 57 76q-45 39 -45 102q0 64 46.5 105.5
t118.5 41.5q32 0 59 -9zM234 182q46 0 72.5 25.5t26.5 68.5q0 42 -26.5 67.5t-72.5 25.5q-47 0 -73.5 -25.5t-26.5 -67.5q0 -43 26.5 -68.5t73.5 -25.5zM160 0q-73 -22 -73 -81q0 -86 143 -86q70 0 109.5 23t39.5 65q0 35 -25 51.5t-90 20.5z" />
    <glyph glyph-name="h" unicode="h" horiz-adv-x="516" 
d="M74 0v722h70v-389q20 42 58.5 66t88.5 24q70 0 112.5 -45.5t42.5 -125.5v-252h-70v244q0 115 -103 115q-58 0 -93.5 -35t-35.5 -96v-228h-70z" />
    <glyph glyph-name="i" unicode="i" horiz-adv-x="222" 
d="M111 534q-20 0 -35 14t-15 35t15 35.5t35 14.5t35 -14.5t15 -35.5t-15 -35t-35 -14zM76 0v414h70v-414h-70z" />
    <glyph glyph-name="j" unicode="j" horiz-adv-x="222" 
d="M111 534q-20 0 -35 14t-15 35t15 35.5t35 14.5t35 -14.5t15 -35.5t-15 -35t-35 -14zM35 -222q-55 0 -92 41l39 42q25 -23 48 -23q46 0 46 63v513h70v-512q0 -60 -30 -92t-81 -32z" />
    <glyph glyph-name="k" unicode="k" horiz-adv-x="463" 
d="M144 126v-126h-70v722h70v-463q0 -31 -5 -59l197 214h81l-159 -174l184 -240h-83l-150 194z" />
    <glyph glyph-name="l" unicode="l" horiz-adv-x="228" 
d="M79 0v722h70v-722h-70z" />
    <glyph glyph-name="m" unicode="m" horiz-adv-x="757" 
d="M74 0v414h70l-2 -78q42 87 130 87q95 0 125 -87q48 87 143 87q68 0 107.5 -42.5t39.5 -115.5v-265h-69v256q0 103 -91 103q-51 0 -81 -33.5t-30 -93.5v-232h-70v256q0 103 -90 103q-51 0 -81.5 -33.5t-30.5 -93.5v-232h-70z" />
    <glyph glyph-name="n" unicode="n" horiz-adv-x="516" 
d="M74 0v414h70l-2 -85q20 44 59.5 69t89.5 25q70 0 112.5 -45.5t42.5 -125.5v-252h-70v244q0 115 -103 115q-58 0 -93.5 -35t-35.5 -96v-228h-70z" />
    <glyph glyph-name="o" unicode="o" horiz-adv-x="534" 
d="M268 -8q-93 0 -156.5 62t-63.5 153t63.5 153.5t156.5 62.5q92 0 155 -62.5t63 -153.5t-63 -153t-155 -62zM268 52q65 0 106 44t41 111t-41 111t-106 44q-66 0 -107.5 -44t-41.5 -111t41.5 -111t107.5 -44z" />
    <glyph glyph-name="p" unicode="p" horiz-adv-x="551" 
d="M75 -212v626h69l-2 -89q50 98 161 98q85 0 142.5 -61.5t57.5 -153.5q0 -93 -58 -154.5t-143 -61.5q-54 0 -95.5 26t-62.5 68v-298h-69zM288 53q65 0 104 43.5t39 111.5q0 67 -39 110t-104 43q-66 0 -106.5 -43t-40.5 -110q0 -68 40.5 -111.5t106.5 -43.5z" />
    <glyph glyph-name="q" unicode="q" horiz-adv-x="552" 
d="M407 -212v298q-21 -42 -62.5 -68t-95.5 -26q-85 0 -143 61.5t-58 154.5q0 92 58 153.5t142 61.5q111 0 161 -98l-2 89h70v-626h-70zM263 53q66 0 106.5 43.5t40.5 111.5q0 67 -40.5 110t-106.5 43q-65 0 -104 -43t-39 -110q0 -68 39 -111.5t104 -43.5z" />
    <glyph glyph-name="r" unicode="r" horiz-adv-x="357" 
d="M74 0v414h70l-2 -81q37 89 121 89q43 0 72 -20l-27 -61q-23 16 -57 16q-47 0 -77 -35t-30 -104v-218h-70z" />
    <glyph glyph-name="s" unicode="s" horiz-adv-x="410" 
d="M213 -8q-64 0 -109.5 27t-67.5 69l54 31q42 -70 120 -70q42 0 65 16.5t23 45.5q0 31 -22.5 44.5t-85.5 31.5q-60 17 -92.5 43.5t-32.5 79.5q0 52 38.5 82.5t97.5 30.5q91 0 138 -67l-48 -37q-34 47 -90 47q-33 0 -52.5 -14.5t-19.5 -38.5q0 -28 20 -41t78 -30
q64 -17 100.5 -45t36.5 -82q0 -55 -38 -89t-113 -34z" />
    <glyph glyph-name="t" unicode="t" horiz-adv-x="336" 
d="M209 -9q-51 0 -81 32t-30 102v230h-64v59h64v216h69v-216h116v-59h-116v-231q0 -72 49 -72q30 0 56 24l38 -44q-39 -41 -101 -41z" />
    <glyph glyph-name="u" unicode="u" horiz-adv-x="515" 
d="M225 -9q-70 0 -112.5 45.5t-42.5 123.5v254h70v-247q0 -112 102 -112q59 0 94 35.5t35 95.5v228h70v-414h-70l2 84q-20 -44 -59 -68.5t-89 -24.5z" />
    <glyph glyph-name="v" unicode="v" horiz-adv-x="462" 
d="M226 -8l-201 422h77l110 -239q6 -12 11.5 -30t8.5 -29l3 -12q9 43 22 71l108 239h72l-198 -422h-13z" />
    <glyph glyph-name="w" unicode="w" horiz-adv-x="683" 
d="M195 -9l-170 423h76l89 -228l19 -64q8 37 21 64l108 234h9l110 -233q6 -12 11.5 -28.5t7.5 -26.5l3 -10q8 38 19 65l89 227h71l-172 -423h-10l-114 249q-5 11 -10 26.5t-8 25.5l-2 9q-9 -37 -20 -61l-117 -249h-10z" />
    <glyph glyph-name="x" unicode="x" horiz-adv-x="470" 
d="M31 0l164 220l-142 194h83l78 -108l24 -43q8 27 20 43l79 108h77l-140 -189l165 -225h-84l-98 136l-26 46q-12 -30 -24 -46l-99 -136h-77z" />
    <glyph glyph-name="y" unicode="y" horiz-adv-x="462" 
d="M95 -212l106 247l-176 379h77l117 -257q5 -12 9.5 -29.5t7.5 -29.5l2 -11q7 44 19 70l108 257h72l-270 -626h-72z" />
    <glyph glyph-name="z" unicode="z" horiz-adv-x="417" 
d="M32 0v10l239 346h-213v58h326v-11l-241 -345h236v-58h-347z" />
    <glyph glyph-name="braceleft" unicode="{" horiz-adv-x="367" 
d="M274 -128q-133 0 -133 144v151q0 38 -14.5 53.5t-43.5 15.5h-58v61h58q29 0 43.5 15.5t14.5 53.5v212q0 144 133 144h57v-60h-53q-33 0 -49.5 -19t-16.5 -66v-218q0 -78 -65 -92q65 -14 65 -93v-157q0 -47 16.5 -66t49.5 -19h53v-60h-57z" />
    <glyph glyph-name="bar" unicode="|" horiz-adv-x="237" 
d="M85 -128v850h67v-850h-67z" />
    <glyph glyph-name="braceright" unicode="}" horiz-adv-x="366" 
d="M36 -128v60h53q33 0 49.5 19t16.5 66v157q0 80 65 92q-65 14 -65 93v218q0 47 -16.5 66t-49.5 19h-53v60h57q132 0 132 -144v-211q0 -38 15 -54t44 -16h57v-61h-57q-29 0 -44 -15.5t-15 -52.5v-152q0 -144 -132 -144h-57z" />
    <glyph glyph-name="asciitilde" unicode="~" horiz-adv-x="393" 
d="M103 224l-52 5q2 53 25.5 82t60.5 29q33 0 69 -33q30 -25 41 -27q3 -1 7 -1q30 0 36 59l52 -5q-2 -53 -24.5 -81.5t-60.5 -28.5q-33 0 -69 33q-21 17 -29 22t-20 5q-30 0 -36 -59z" />
    <glyph glyph-name="nbspace" unicode="&#xa0;" horiz-adv-x="182" 
 />
    <glyph glyph-name="exclamdown" unicode="&#xa1;" horiz-adv-x="244" 
d="M122 687q21 0 37 -15.5t16 -37.5q0 -23 -16 -38.5t-37 -15.5t-37 15.5t-16 38.5q0 22 16 37.5t37 15.5zM149 490l12 -490h-78l12 490h54z" />
    <glyph glyph-name="cent" unicode="&#xa2;" horiz-adv-x="470" 
d="M233 -6q-81 11 -133 70.5t-52 142.5t52.5 143t132.5 71v108h51v-107q88 -6 143 -73l-49 -40q-35 45 -94 52v-308q61 7 100 54l48 -41q-56 -67 -148 -73v-109h-51v110zM233 359q-52 -10 -83 -51.5t-31 -100.5t30.5 -100.5t83.5 -51.5v304z" />
    <glyph glyph-name="sterling" unicode="&#xa3;" horiz-adv-x="544" 
d="M165 260h-95v56h71q-31 78 -31 131q0 73 52 122t137 49q66 0 113.5 -31t70.5 -80l-58 -32q-21 41 -50 60.5t-76 19.5q-54 0 -85 -29.5t-31 -81.5q0 -50 29 -128h162v-56h-141q31 -89 31 -148v-5q25 -18 39 -27t37 -17.5t45 -8.5q53 0 91 43l42 -43q-50 -62 -131 -62
q-68 0 -142 60q-18 -27 -48 -43.5t-65 -16.5q-47 0 -75.5 25.5t-28.5 65.5q0 39 27.5 63t70.5 24q35 0 76 -22q-7 42 -37 112zM201 88q-45 34 -70 34q-21 0 -33.5 -11.5t-12.5 -29.5t12.5 -29.5t33.5 -11.5q23 0 42.5 13.5t27.5 34.5z" />
    <glyph glyph-name="currency" unicode="&#xa4;" horiz-adv-x="621" 
d="M113 283h-73v56h85q26 78 92.5 125.5t151.5 47.5q128 0 199 -94l-52 -40q-54 73 -147 73q-60 0 -105 -30t-66 -82h217v-56h-231q-2 -20 -2 -31q0 -12 2 -32h231v-56h-216q21 -52 66.5 -81.5t103.5 -29.5q97 0 154 76l51 -36q-66 -101 -205 -101q-84 0 -151 47t-93 125
h-85v56h73q-2 20 -2 32q0 11 2 31z" />
    <glyph glyph-name="yen" unicode="&#xa5;" horiz-adv-x="558" 
d="M166 292l-125 212h79l134 -233q7 -13 14 -29.5t10 -27.5l3 -10q12 38 28 67l134 233h74l-125 -212h107v-56h-140l-41 -69h181v-56h-184v-111h-72v111h-185v56h182l-41 69h-141v56h108z" />
    <glyph glyph-name="brokenbar" unicode="&#xa6;" 
d="M101 189q-21 0 -37.5 16t-16.5 39t16 38.5t38 15.5t38 -15.5t16 -38.5t-16 -39t-38 -16z" />
    <glyph glyph-name="section" unicode="&#xa7;" horiz-adv-x="495" 
d="M113 405q-20 32 -20 74q0 61 44.5 100t111.5 39q115 0 160 -101l-57 -26q-34 69 -101 69q-41 0 -65.5 -21t-24.5 -58q0 -32 16 -52t55 -36l98 -39q70 -27 101.5 -62t31.5 -83q0 -72 -80 -104q23 -32 23 -74q0 -61 -43 -97.5t-120 -36.5q-64 0 -113 30t-71 78l56 28
q39 -77 126 -77q44 0 69.5 20.5t25.5 54.5q0 29 -19 47.5t-63 35.5l-89 35q-70 27 -101.5 61t-31.5 87q0 73 81 108zM349 138q48 21 48 62q0 31 -18.5 51t-68.5 40l-98 39q-43 18 -72 42q-41 -20 -41 -67q0 -34 18.5 -54t65.5 -39l91 -35q47 -18 75 -39z" />
    <glyph glyph-name="dieresis" unicode="&#xa8;" horiz-adv-x="500" 
d="M337 516q-18 0 -32.5 14t-14.5 32q0 19 14.5 32.5t32.5 13.5t32 -13.5t14 -32.5t-14 -32.5t-32 -13.5zM163 516q-18 0 -32 13.5t-14 32.5t14 32.5t32 13.5q19 0 33 -13.5t14 -32.5t-14 -32.5t-33 -13.5z" />
    <glyph glyph-name="copyright" unicode="&#xa9;" horiz-adv-x="598" 
d="M300 -7q-108 0 -184.5 74.5t-76.5 184.5q0 111 76.5 185.5t184.5 74.5q107 0 183 -74.5t76 -185.5q0 -110 -76 -184.5t-183 -74.5zM300 33q92 0 154.5 62t62.5 157q0 96 -62.5 158t-154.5 62q-93 0 -156 -62t-63 -158q0 -95 63 -157t156 -62zM303 103q-63 0 -105.5 42.5
t-42.5 106.5t42 107t104 43q67 0 115 -51l-41 -38q-26 34 -70 34q-38 0 -62 -27t-24 -68q0 -40 24 -67t62 -27q44 0 73 36l41 -38q-46 -53 -116 -53z" />
    <glyph glyph-name="ordfeminine" unicode="&#xaa;" horiz-adv-x="402" 
d="M284 363q0 53 -21 74t-61 21q-60 0 -101 -50l-40 35q49 69 146 69q64 0 103 -36t39 -111v-211h-65l1 46q-38 -54 -114 -54q-58 0 -95 28t-37 81q0 52 39.5 80t99.5 28h106zM284 314h-99q-81 0 -81 -57q0 -59 82 -59q42 0 70 20.5t28 55.5v40z" />
    <glyph glyph-name="guillemotleft" unicode="&#xab;" horiz-adv-x="397" 
d="M287 37l-94 159v8l94 157h72l-96 -161l96 -163h-72zM132 37l-94 159v8l94 157h72l-96 -161l96 -163h-72z" />
    <glyph glyph-name="logicalnot" unicode="&#xac;" 
d="M101 189q-21 0 -37.5 16t-16.5 39t16 38.5t38 15.5t38 -15.5t16 -38.5t-16 -39t-38 -16z" />
    <glyph glyph-name="registered" unicode="&#xae;" horiz-adv-x="514" 
d="M255 265q-90 0 -153.5 61.5t-63.5 152.5q0 93 63 154t154 61q92 0 156.5 -61.5t64.5 -153.5q0 -91 -64.5 -152.5t-156.5 -61.5zM255 300q79 0 130 49.5t51 129.5q0 81 -51 130.5t-130 49.5q-77 0 -126.5 -49.5t-49.5 -130.5q0 -80 49.5 -129.5t126.5 -49.5zM306 432
l47 -70h-48l-39 59q-4 -1 -14 -1h-30v-58h-44v237h73q49 0 75.5 -26t26.5 -64q0 -54 -47 -77zM222 455h29q58 0 58 53q0 54 -58 54h-29v-107z" />
    <glyph glyph-name="macron" unicode="&#xaf;" horiz-adv-x="500" 
d="M145 518v55h210v-55h-210z" />
    <glyph glyph-name="macron" unicode="&#x2c9;" horiz-adv-x="500" 
d="M145 518v55h210v-55h-210z" />
    <glyph glyph-name="degree" unicode="&#xb0;" horiz-adv-x="325" 
d="M163 286q-49 0 -83 33t-34 80q0 48 34 80.5t83 32.5q48 0 82 -32.5t34 -80.5q0 -47 -34 -80t-82 -33zM163 332q28 0 46 19t18 48t-18 48t-46 19q-29 0 -47 -19t-18 -48t18 -48t47 -19z" />
    <glyph glyph-name="twosuperior" unicode="&#xb2;" 
d="M101 189q-21 0 -37.5 16t-16.5 39t16 38.5t38 15.5t38 -15.5t16 -38.5t-16 -39t-38 -16z" />
    <glyph glyph-name="threesuperior" unicode="&#xb3;" 
d="M101 189q-21 0 -37.5 16t-16.5 39t16 38.5t38 15.5t38 -15.5t16 -38.5t-16 -39t-38 -16z" />
    <glyph glyph-name="acute" unicode="&#xb4;" horiz-adv-x="500" 
d="M221 498l68 193h80l-93 -193h-55z" />
    <glyph glyph-name="mu" unicode="&#xb5;" 
d="M101 189q-21 0 -37.5 16t-16.5 39t16 38.5t38 15.5t38 -15.5t16 -38.5t-16 -39t-38 -16z" />
    <glyph glyph-name="mu" unicode="&#x3bc;" 
d="M101 189q-21 0 -37.5 16t-16.5 39t16 38.5t38 15.5t38 -15.5t16 -38.5t-16 -39t-38 -16z" />
    <glyph glyph-name="paragraph" unicode="&#xb6;" horiz-adv-x="625" 
d="M312 0v304h-64q-90 0 -143.5 53.5t-53.5 133.5t53.5 134.5t143.5 54.5h284v-680h-69v618h-80v-618h-71zM249 365h63v253h-63q-56 0 -88.5 -34t-32.5 -92t32.5 -92.5t88.5 -34.5z" />
    <glyph glyph-name="periodcentered" unicode="&#xb7;" horiz-adv-x="202" 
d="M101 189q-21 0 -37.5 16t-16.5 39t16 38.5t38 15.5t38 -15.5t16 -38.5t-16 -39t-38 -16z" />
    <glyph glyph-name="periodcentered" unicode="&#x2219;" horiz-adv-x="202" 
d="M101 189q-21 0 -37.5 16t-16.5 39t16 38.5t38 15.5t38 -15.5t16 -38.5t-16 -39t-38 -16z" />
    <glyph glyph-name="cedilla" unicode="&#xb8;" horiz-adv-x="500" 
d="M256 -232q-72 0 -101 59l43 25q8 -13 13 -19.5t15.5 -12t25.5 -5.5q19 0 32 12t13 33t-13.5 34t-39.5 13h-22v93h48v-53q34 -5 58 -29t24 -62q0 -40 -28.5 -64t-67.5 -24z" />
    <glyph glyph-name="onesuperior" unicode="&#xb9;" 
d="M101 189q-21 0 -37.5 16t-16.5 39t16 38.5t38 15.5t38 -15.5t16 -38.5t-16 -39t-38 -16z" />
    <glyph glyph-name="ordmasculine" unicode="&#xba;" horiz-adv-x="454" 
d="M227 146q-77 0 -131 52.5t-54 130.5q0 77 54 130t131 53t131 -53t54 -130q0 -78 -54 -130.5t-131 -52.5zM227 201q53 0 86 36t33 92t-33 91.5t-86 35.5t-85.5 -35.5t-32.5 -91.5q0 -57 32.5 -92.5t85.5 -35.5z" />
    <glyph glyph-name="guillemotright" unicode="&#xbb;" horiz-adv-x="397" 
d="M193 37l96 162l-96 162h72l94 -158v-8l-94 -158h-72zM38 37l96 162l-96 162h72l94 -158v-8l-94 -158h-72z" />
    <glyph glyph-name="onequarter" unicode="&#xbc;" 
d="M101 189q-21 0 -37.5 16t-16.5 39t16 38.5t38 15.5t38 -15.5t16 -38.5t-16 -39t-38 -16z" />
    <glyph glyph-name="onehalf" unicode="&#xbd;" 
d="M101 189q-21 0 -37.5 16t-16.5 39t16 38.5t38 15.5t38 -15.5t16 -38.5t-16 -39t-38 -16z" />
    <glyph glyph-name="threequarters" unicode="&#xbe;" 
d="M101 189q-21 0 -37.5 16t-16.5 39t16 38.5t38 15.5t38 -15.5t16 -38.5t-16 -39t-38 -16z" />
    <glyph glyph-name="questiondown" unicode="&#xbf;" horiz-adv-x="469" 
d="M263 687q21 0 37 -15.5t16 -37.5q0 -23 -16 -38.5t-37 -15.5t-37 15.5t-16 38.5q0 22 16 37.5t37 15.5zM295 493v-176h-33q-65 0 -102.5 -38t-37.5 -96q0 -59 34.5 -93.5t90.5 -34.5q50 0 82 21t55 67l58 -30q-25 -59 -75.5 -90t-119.5 -31q-88 0 -142.5 52.5
t-54.5 138.5q0 79 49.5 131t129.5 58v121h66z" />
    <glyph glyph-name="Agrave" unicode="&#xc0;" horiz-adv-x="656" 
d="M299 753l-93 193h80l68 -193h-55zM37 0l282 687h12l288 -687h-76l-46 114h-344l-45 -114h-71zM178 176h293l-120 302l-26 81q-14 -49 -27 -81z" />
    <glyph glyph-name="Aacute" unicode="&#xc1;" horiz-adv-x="656" 
d="M299 753l68 193h80l-93 -193h-55zM37 0l282 687h12l288 -687h-76l-46 114h-344l-45 -114h-71zM178 176h293l-120 302l-26 81q-14 -49 -27 -81z" />
    <glyph glyph-name="Acircumflex" unicode="&#xc2;" horiz-adv-x="656" 
d="M192 751l128 193h9l128 -193h-61l-71 99l-72 -99h-61zM37 0l282 687h12l288 -687h-76l-46 114h-344l-45 -114h-71zM178 176h293l-120 302l-26 81q-14 -49 -27 -81z" />
    <glyph glyph-name="Atilde" unicode="&#xc3;" horiz-adv-x="656" 
d="M231 748l-52 4q3 53 26.5 82t60.5 29q32 0 69 -32q20 -18 28.5 -23t19.5 -5q30 0 36 58l52 -5q-3 -53 -25.5 -81.5t-60.5 -28.5q-31 0 -69 33q-20 18 -28.5 23t-19.5 5q-31 0 -37 -59zM37 0l282 687h12l288 -687h-76l-46 114h-344l-45 -114h-71zM178 176h293l-120 302
l-26 81q-14 -49 -27 -81z" />
    <glyph glyph-name="Adieresis" unicode="&#xc4;" horiz-adv-x="656" 
d="M414 771q-18 0 -32.5 14t-14.5 32q0 19 14.5 32.5t32.5 13.5t32 -13.5t14 -32.5t-14 -32.5t-32 -13.5zM240 771q-18 0 -32 13.5t-14 32.5t14 32.5t32 13.5q19 0 33 -13.5t14 -32.5t-14 -32.5t-33 -13.5zM37 0l282 687h12l288 -687h-76l-46 114h-344l-45 -114h-71z
M178 176h293l-120 302l-26 81q-14 -49 -27 -81z" />
    <glyph glyph-name="Aring" unicode="&#xc5;" horiz-adv-x="656" 
d="M327 727q-44 0 -74.5 29.5t-30.5 70.5q0 42 30.5 71.5t74.5 29.5t74.5 -29.5t30.5 -71.5q0 -41 -30.5 -70.5t-74.5 -29.5zM37 0l282 687h12l288 -687h-76l-46 114h-344l-45 -114h-71zM327 772q23 0 37.5 15t14.5 40t-14.5 40t-37.5 15t-37.5 -15t-14.5 -40t14.5 -40
t37.5 -15zM178 176h293l-120 302l-26 81q-14 -49 -27 -81z" />
    <glyph glyph-name="AE" unicode="&#xc6;" horiz-adv-x="953" 
d="M27 0l454 680h399v-64h-341v-319h304v-63h-304v-170h355v-64h-428v114h-286l-76 -114h-77zM223 178h243v308l7 84q-20 -44 -41 -75z" />
    <glyph glyph-name="Ccedilla" unicode="&#xc7;" horiz-adv-x="726" 
d="M403 -8v-45q34 -5 58 -29t24 -62q0 -40 -28.5 -64t-67.5 -24q-71 0 -101 59l43 25q8 -13 13 -19.5t15.5 -12t25.5 -5.5q19 0 32 12t13 33t-13.5 34t-39.5 13h-22v88q-130 16 -215.5 111t-85.5 234q0 152 101 250t248 98q182 0 270 -132l-55 -40q-72 107 -215 107
q-119 0 -196.5 -80.5t-77.5 -202.5t77.5 -202.5t196.5 -80.5q145 0 224 114l56 -39q-46 -67 -118 -103.5t-162 -36.5z" />
    <glyph glyph-name="Egrave" unicode="&#xc8;" horiz-adv-x="580" 
d="M281 753l-93 193h80l68 -193h-55zM93 0v680h414v-64h-342v-319h305v-63h-305v-170h356v-64h-428z" />
    <glyph glyph-name="Eacute" unicode="&#xc9;" horiz-adv-x="580" 
d="M269 753l68 193h80l-93 -193h-55zM93 0v680h414v-64h-342v-319h305v-63h-305v-170h356v-64h-428z" />
    <glyph glyph-name="Ecircumflex" unicode="&#xca;" horiz-adv-x="580" 
d="M172 751l128 193h9l128 -193h-61l-71 99l-72 -99h-61zM93 0v680h414v-64h-342v-319h305v-63h-305v-170h356v-64h-428z" />
    <glyph glyph-name="Edieresis" unicode="&#xcb;" horiz-adv-x="580" 
d="M391 771q-18 0 -32.5 14t-14.5 32q0 19 14.5 32.5t32.5 13.5t32 -13.5t14 -32.5t-14 -32.5t-32 -13.5zM217 771q-18 0 -32 13.5t-14 32.5t14 32.5t32 13.5q19 0 33 -13.5t14 -32.5t-14 -32.5t-33 -13.5zM93 0v680h414v-64h-342v-319h305v-63h-305v-170h356v-64h-428z" />
    <glyph glyph-name="Igrave" unicode="&#xcc;" horiz-adv-x="265" 
d="M103 753l-93 193h80l68 -193h-55zM96 0v680h73v-680h-73z" />
    <glyph glyph-name="Iacute" unicode="&#xcd;" horiz-adv-x="265" 
d="M106 753l68 193h80l-93 -193h-55zM96 0v680h73v-680h-73z" />
    <glyph glyph-name="Icircumflex" unicode="&#xce;" horiz-adv-x="265" 
d="M-1 751l128 193h9l128 -193h-61l-71 99l-72 -99h-61zM96 0v680h73v-680h-73z" />
    <glyph glyph-name="Idieresis" unicode="&#xcf;" horiz-adv-x="265" 
d="M219 771q-18 0 -32.5 14t-14.5 32q0 19 14.5 32.5t32.5 13.5t32 -13.5t14 -32.5t-14 -32.5t-32 -13.5zM45 771q-18 0 -32 13.5t-14 32.5t14 32.5t32 13.5q19 0 33 -13.5t14 -32.5t-14 -32.5t-33 -13.5zM96 0v680h73v-680h-73z" />
    <glyph glyph-name="Eth" unicode="&#xd0;" horiz-adv-x="680" 
d="M93 0v242h-79v63h79v375h173q164 0 262 -94t98 -246t-97.5 -246t-262.5 -94h-173zM165 65h96q141 0 215 74.5t74 200.5t-74 200.5t-215 74.5h-96v-310h183v-63h-183v-177z" />
    <glyph glyph-name="Ntilde" unicode="&#xd1;" horiz-adv-x="713" 
d="M262 748l-52 4q3 53 26.5 82t60.5 29q32 0 69 -32q20 -18 28.5 -23t19.5 -5q30 0 36 58l52 -5q-3 -53 -25.5 -81.5t-60.5 -28.5q-31 0 -69 33q-20 18 -28.5 23t-19.5 5q-31 0 -37 -59zM608 -7l-406 480l-47 63q6 -48 6 -77v-459h-68v687h12l406 -480l47 -63q-5 48 -5 77
v459h67v-687h-12z" />
    <glyph glyph-name="Ograve" unicode="&#xd2;" horiz-adv-x="807" 
d="M377 753l-93 193h80l68 -193h-55zM403 -8q-147 0 -248 98t-101 250t101 250t248 98q148 0 249 -98t101 -250t-101 -250t-249 -98zM403 57q119 0 197 80.5t78 202.5t-78 202.5t-197 80.5q-118 0 -196 -80.5t-78 -202.5t78 -202.5t196 -80.5z" />
    <glyph glyph-name="Oacute" unicode="&#xd3;" horiz-adv-x="807" 
d="M374 753l68 193h80l-93 -193h-55zM403 -8q-147 0 -248 98t-101 250t101 250t248 98q148 0 249 -98t101 -250t-101 -250t-249 -98zM403 57q119 0 197 80.5t78 202.5t-78 202.5t-197 80.5q-118 0 -196 -80.5t-78 -202.5t78 -202.5t196 -80.5z" />
    <glyph glyph-name="Ocircumflex" unicode="&#xd4;" horiz-adv-x="807" 
d="M270 751l128 193h9l128 -193h-61l-71 99l-72 -99h-61zM403 -8q-147 0 -248 98t-101 250t101 250t248 98q148 0 249 -98t101 -250t-101 -250t-249 -98zM403 57q119 0 197 80.5t78 202.5t-78 202.5t-197 80.5q-118 0 -196 -80.5t-78 -202.5t78 -202.5t196 -80.5z" />
    <glyph glyph-name="Otilde" unicode="&#xd5;" horiz-adv-x="807" 
d="M309 748l-52 4q3 53 26.5 82t60.5 29q32 0 69 -32q20 -18 28.5 -23t19.5 -5q30 0 36 58l52 -5q-3 -53 -25.5 -81.5t-60.5 -28.5q-31 0 -69 33q-20 18 -28.5 23t-19.5 5q-31 0 -37 -59zM403 -8q-147 0 -248 98t-101 250t101 250t248 98q148 0 249 -98t101 -250t-101 -250
t-249 -98zM403 57q119 0 197 80.5t78 202.5t-78 202.5t-197 80.5q-118 0 -196 -80.5t-78 -202.5t78 -202.5t196 -80.5z" />
    <glyph glyph-name="Odieresis" unicode="&#xd6;" horiz-adv-x="807" 
d="M490 771q-18 0 -32.5 14t-14.5 32q0 19 14.5 32.5t32.5 13.5t32 -13.5t14 -32.5t-14 -32.5t-32 -13.5zM316 771q-18 0 -32 13.5t-14 32.5t14 32.5t32 13.5q19 0 33 -13.5t14 -32.5t-14 -32.5t-33 -13.5zM403 -8q-147 0 -248 98t-101 250t101 250t248 98q148 0 249 -98
t101 -250t-101 -250t-249 -98zM403 57q119 0 197 80.5t78 202.5t-78 202.5t-197 80.5q-118 0 -196 -80.5t-78 -202.5t78 -202.5t196 -80.5z" />
    <glyph glyph-name="multiply" unicode="&#xd7;" 
d="M101 189q-21 0 -37.5 16t-16.5 39t16 38.5t38 15.5t38 -15.5t16 -38.5t-16 -39t-38 -16z" />
    <glyph glyph-name="Oslash" unicode="&#xd8;" horiz-adv-x="807" 
d="M674 566q79 -95 79 -226q0 -152 -101 -250t-249 -98q-131 0 -226 78l-80 -80l-45 44l81 80q-79 95 -79 226q0 152 101 250t248 98q131 0 227 -79l80 80l44 -44zM184 165l66 66t128 127.5t144 143.5l58 58q-72 63 -177 63q-118 0 -196 -80.5t-78 -202.5q0 -100 55 -175z
M623 515l-396 -396q75 -62 176 -62q119 0 197 80.5t78 202.5q0 100 -55 175z" />
    <glyph glyph-name="Ugrave" unicode="&#xd9;" horiz-adv-x="662" 
d="M305 753l-93 193h80l68 -193h-55zM331 -8q-108 0 -176 62.5t-68 177.5v448h72v-443q0 -89 45.5 -135t126.5 -46t126.5 46t45.5 135v443h72v-448q0 -115 -68 -177.5t-176 -62.5z" />
    <glyph glyph-name="Uacute" unicode="&#xda;" horiz-adv-x="662" 
d="M302 753l68 193h80l-93 -193h-55zM331 -8q-108 0 -176 62.5t-68 177.5v448h72v-443q0 -89 45.5 -135t126.5 -46t126.5 46t45.5 135v443h72v-448q0 -115 -68 -177.5t-176 -62.5z" />
    <glyph glyph-name="Ucircumflex" unicode="&#xdb;" horiz-adv-x="662" 
d="M198 751l128 193h9l128 -193h-61l-71 99l-72 -99h-61zM331 -8q-108 0 -176 62.5t-68 177.5v448h72v-443q0 -89 45.5 -135t126.5 -46t126.5 46t45.5 135v443h72v-448q0 -115 -68 -177.5t-176 -62.5z" />
    <glyph glyph-name="Udieresis" unicode="&#xdc;" horiz-adv-x="662" 
d="M418 771q-18 0 -32.5 14t-14.5 32q0 19 14.5 32.5t32.5 13.5t32 -13.5t14 -32.5t-14 -32.5t-32 -13.5zM244 771q-18 0 -32 13.5t-14 32.5t14 32.5t32 13.5q19 0 33 -13.5t14 -32.5t-14 -32.5t-33 -13.5zM331 -8q-108 0 -176 62.5t-68 177.5v448h72v-443q0 -89 45.5 -135
t126.5 -46t126.5 46t45.5 135v443h72v-448q0 -115 -68 -177.5t-176 -62.5z" />
    <glyph glyph-name="Yacute" unicode="&#xdd;" horiz-adv-x="656" 
d="M299 753l68 193h80l-93 -193h-55zM294 0v213l-257 467h81l185 -338q7 -12 14 -29t11 -29l4 -11q15 42 29 69l184 338h75l-252 -464v-216h-74z" />
    <glyph glyph-name="Thorn" unicode="&#xde;" horiz-adv-x="584" 
d="M93 0v680h72v-79h88q132 0 203.5 -70.5t71.5 -185.5q0 -116 -71 -186t-204 -70h-88v-89h-72zM165 153h84q204 0 204 192t-204 192h-84v-384z" />
    <glyph glyph-name="germandbls" unicode="&#xdf;" horiz-adv-x="540" 
d="M283 -5q-44 0 -76 13l15 57q21 -9 54 -9q70 0 107 41.5t37 112.5q0 75 -47 116.5t-133 40.5v58q55 6 86 41t31 92q0 59 -29.5 88.5t-75.5 29.5q-48 0 -78 -31.5t-30 -99.5v-545h-70v546q0 93 51 141t127 48q74 0 122.5 -46t48.5 -129q0 -113 -96 -154q75 -15 120 -66.5
t45 -130.5q0 -95 -55.5 -154.5t-153.5 -59.5z" />
    <glyph glyph-name="agrave" unicode="&#xe0;" horiz-adv-x="471" 
d="M213 498l-93 193h80l68 -193h-55zM331 243v10q0 111 -97 111q-76 0 -121 -60l-43 39q59 80 169 80q72 0 117 -43t45 -126v-254h-70l3 62q-47 -70 -137 -70q-69 0 -110.5 32t-41.5 94q0 61 44 93t113 32h129zM331 190h-124q-94 0 -94 -69q0 -72 100 -72q49 0 83.5 24.5
t34.5 64.5v52z" />
    <glyph glyph-name="aacute" unicode="&#xe1;" horiz-adv-x="471" 
d="M203 498l68 193h80l-93 -193h-55zM331 243v10q0 111 -97 111q-76 0 -121 -60l-43 39q59 80 169 80q72 0 117 -43t45 -126v-254h-70l3 62q-47 -70 -137 -70q-69 0 -110.5 32t-41.5 94q0 61 44 93t113 32h129zM331 190h-124q-94 0 -94 -69q0 -72 100 -72q49 0 83.5 24.5
t34.5 64.5v52z" />
    <glyph glyph-name="acircumflex" unicode="&#xe2;" horiz-adv-x="471" 
d="M104 496l128 193h9l128 -193h-61l-71 99l-72 -99h-61zM331 243v10q0 111 -97 111q-76 0 -121 -60l-43 39q59 80 169 80q72 0 117 -43t45 -126v-254h-70l3 62q-47 -70 -137 -70q-69 0 -110.5 32t-41.5 94q0 61 44 93t113 32h129zM331 190h-124q-94 0 -94 -69
q0 -72 100 -72q49 0 83.5 24.5t34.5 64.5v52z" />
    <glyph glyph-name="atilde" unicode="&#xe3;" horiz-adv-x="471" 
d="M137 493l-52 4q3 53 26.5 82t60.5 29q32 0 69 -32q20 -18 28.5 -23t19.5 -5q30 0 36 58l52 -5q-3 -53 -25.5 -81.5t-60.5 -28.5q-31 0 -69 33q-20 18 -28.5 23t-19.5 5q-31 0 -37 -59zM331 243v10q0 111 -97 111q-76 0 -121 -60l-43 39q59 80 169 80q72 0 117 -43
t45 -126v-254h-70l3 62q-47 -70 -137 -70q-69 0 -110.5 32t-41.5 94q0 61 44 93t113 32h129zM331 190h-124q-94 0 -94 -69q0 -72 100 -72q49 0 83.5 24.5t34.5 64.5v52z" />
    <glyph glyph-name="adieresis" unicode="&#xe4;" horiz-adv-x="471" 
d="M324 516q-18 0 -32.5 14t-14.5 32q0 19 14.5 32.5t32.5 13.5t32 -13.5t14 -32.5t-14 -32.5t-32 -13.5zM150 516q-18 0 -32 13.5t-14 32.5t14 32.5t32 13.5q19 0 33 -13.5t14 -32.5t-14 -32.5t-33 -13.5zM331 243v10q0 111 -97 111q-76 0 -121 -60l-43 39q59 80 169 80
q72 0 117 -43t45 -126v-254h-70l3 62q-47 -70 -137 -70q-69 0 -110.5 32t-41.5 94q0 61 44 93t113 32h129zM331 190h-124q-94 0 -94 -69q0 -72 100 -72q49 0 83.5 24.5t34.5 64.5v52z" />
    <glyph glyph-name="aring" unicode="&#xe5;" horiz-adv-x="471" 
d="M235 484q-44 0 -74.5 29.5t-30.5 70.5q0 42 30.5 71.5t74.5 29.5t74.5 -29.5t30.5 -71.5q0 -41 -30.5 -70.5t-74.5 -29.5zM331 243v10q0 111 -97 111q-76 0 -121 -60l-43 39q59 80 169 80q72 0 117 -43t45 -126v-254h-70l3 62q-47 -70 -137 -70q-69 0 -110.5 32t-41.5 94
q0 61 44 93t113 32h129zM235 529q23 0 37.5 15t14.5 40t-14.5 40t-37.5 15t-37.5 -15t-14.5 -40t14.5 -40t37.5 -15zM331 190h-124q-94 0 -94 -69q0 -72 100 -72q49 0 83.5 24.5t34.5 64.5v52z" />
    <glyph glyph-name="ae" unicode="&#xe6;" horiz-adv-x="799" 
d="M331 240v12q0 112 -97 112q-76 0 -121 -60l-43 39q59 80 169 80q104 0 137 -94q27 42 71 68t97 26q98 0 155 -66.5t54 -168.5h-353q6 -61 46.5 -99t107.5 -38q81 0 132 55l42 -42q-64 -72 -173 -72q-126 0 -182 97q-16 -47 -62.5 -72t-104.5 -25q-73 0 -117 31.5
t-44 93.5q0 61 44 92t113 31h129zM402 240h280q-5 53 -40 88.5t-97 35.5q-57 0 -95.5 -34.5t-47.5 -89.5zM331 188h-124q-94 0 -94 -68q0 -71 100 -71q49 0 83.5 24.5t34.5 64.5v50z" />
    <glyph glyph-name="ccedilla" unicode="&#xe7;" horiz-adv-x="467" 
d="M217 -3q-75 15 -122 73.5t-47 136.5q0 91 62 153.5t153 62.5q102 0 163 -74l-50 -41q-40 53 -113 53q-65 0 -104 -43.5t-39 -110.5t39 -110.5t104 -43.5q74 0 119 54l48 -41q-61 -74 -165 -74v-45q34 -5 58 -29t24 -62q0 -40 -28.5 -64t-67.5 -24q-71 0 -101 59l43 25
q8 -13 13 -19.5t15.5 -12t25.5 -5.5q19 0 32 12t13 33t-13.5 34t-39.5 13h-22v90z" />
    <glyph glyph-name="egrave" unicode="&#xe8;" horiz-adv-x="516" 
d="M235 498l-93 193h80l68 -193h-55zM118 184q7 -61 47 -97t107 -36q82 0 131 55l43 -42q-64 -72 -174 -72q-100 0 -162 61.5t-62 153.5q0 91 61.5 153.5t152.5 62.5q98 0 155 -67.5t53 -171.5h-352zM119 237h281q-5 56 -40.5 91.5t-97.5 35.5q-58 0 -96.5 -34.5
t-46.5 -92.5z" />
    <glyph glyph-name="eacute" unicode="&#xe9;" horiz-adv-x="516" 
d="M229 498l68 193h80l-93 -193h-55zM118 184q7 -61 47 -97t107 -36q82 0 131 55l43 -42q-64 -72 -174 -72q-100 0 -162 61.5t-62 153.5q0 91 61.5 153.5t152.5 62.5q98 0 155 -67.5t53 -171.5h-352zM119 237h281q-5 56 -40.5 91.5t-97.5 35.5q-58 0 -96.5 -34.5
t-46.5 -92.5z" />
    <glyph glyph-name="ecircumflex" unicode="&#xea;" horiz-adv-x="516" 
d="M125 496l128 193h9l128 -193h-61l-71 99l-72 -99h-61zM118 184q7 -61 47 -97t107 -36q82 0 131 55l43 -42q-64 -72 -174 -72q-100 0 -162 61.5t-62 153.5q0 91 61.5 153.5t152.5 62.5q98 0 155 -67.5t53 -171.5h-352zM119 237h281q-5 56 -40.5 91.5t-97.5 35.5
q-58 0 -96.5 -34.5t-46.5 -92.5z" />
    <glyph glyph-name="edieresis" unicode="&#xeb;" horiz-adv-x="516" 
d="M345 516q-18 0 -32.5 14t-14.5 32q0 19 14.5 32.5t32.5 13.5t32 -13.5t14 -32.5t-14 -32.5t-32 -13.5zM171 516q-18 0 -32 13.5t-14 32.5t14 32.5t32 13.5q19 0 33 -13.5t14 -32.5t-14 -32.5t-33 -13.5zM118 184q7 -61 47 -97t107 -36q82 0 131 55l43 -42
q-64 -72 -174 -72q-100 0 -162 61.5t-62 153.5q0 91 61.5 153.5t152.5 62.5q98 0 155 -67.5t53 -171.5h-352zM119 237h281q-5 56 -40.5 91.5t-97.5 35.5q-58 0 -96.5 -34.5t-46.5 -92.5z" />
    <glyph glyph-name="igrave" unicode="&#xec;" horiz-adv-x="222" 
d="M83 498l-93 193h80l68 -193h-55zM76 0v414h70v-414h-70z" />
    <glyph glyph-name="iacute" unicode="&#xed;" horiz-adv-x="222" 
d="M81 498l68 193h80l-93 -193h-55zM76 0v414h70v-414h-70z" />
    <glyph glyph-name="icircumflex" unicode="&#xee;" horiz-adv-x="222" 
d="M-22 496l128 193h9l128 -193h-61l-71 99l-72 -99h-61zM76 0v414h70v-414h-70z" />
    <glyph glyph-name="idieresis" unicode="&#xef;" horiz-adv-x="222" 
d="M198 516q-18 0 -32.5 14t-14.5 32q0 19 14.5 32.5t32.5 13.5t32 -13.5t14 -32.5t-14 -32.5t-32 -13.5zM24 516q-18 0 -32 13.5t-14 32.5t14 32.5t32 13.5q19 0 33 -13.5t14 -32.5t-14 -32.5t-33 -13.5zM76 0v414h70v-414h-70z" />
    <glyph glyph-name="eth" unicode="&#xf0;" horiz-adv-x="534" 
d="M276 575l-67 -65l-35 35l70 68q-40 46 -84 82l39 43q44 -35 89 -81l67 66l37 -36l-70 -67q164 -191 164 -402q0 -97 -62.5 -161.5t-155.5 -64.5t-156.5 62t-63.5 153t62.5 153.5t149.5 62.5q86 0 135 -65q-29 109 -119 217zM268 52q65 0 106 45t41 114q0 66 -41 108.5
t-106 42.5q-66 0 -107.5 -44t-41.5 -111t41.5 -111t107.5 -44z" />
    <glyph glyph-name="ntilde" unicode="&#xf1;" horiz-adv-x="516" 
d="M161 493l-52 4q3 53 26.5 82t60.5 29q32 0 69 -32q20 -18 28.5 -23t19.5 -5q30 0 36 58l52 -5q-3 -53 -25.5 -81.5t-60.5 -28.5q-31 0 -69 33q-20 18 -28.5 23t-19.5 5q-31 0 -37 -59zM74 0v414h70l-2 -85q20 44 59.5 69t89.5 25q70 0 112.5 -45.5t42.5 -125.5v-252h-70
v244q0 115 -103 115q-58 0 -93.5 -35t-35.5 -96v-228h-70z" />
    <glyph glyph-name="ograve" unicode="&#xf2;" horiz-adv-x="534" 
d="M240 498l-93 193h80l68 -193h-55zM268 -8q-93 0 -156.5 62t-63.5 153t63.5 153.5t156.5 62.5q92 0 155 -62.5t63 -153.5t-63 -153t-155 -62zM268 52q65 0 106 44t41 111t-41 111t-106 44q-66 0 -107.5 -44t-41.5 -111t41.5 -111t107.5 -44z" />
    <glyph glyph-name="oacute" unicode="&#xf3;" horiz-adv-x="534" 
d="M239 498l68 193h80l-93 -193h-55zM268 -8q-93 0 -156.5 62t-63.5 153t63.5 153.5t156.5 62.5q92 0 155 -62.5t63 -153.5t-63 -153t-155 -62zM268 52q65 0 106 44t41 111t-41 111t-106 44q-66 0 -107.5 -44t-41.5 -111t41.5 -111t107.5 -44z" />
    <glyph glyph-name="ocircumflex" unicode="&#xf4;" horiz-adv-x="534" 
d="M134 496l128 193h9l128 -193h-61l-71 99l-72 -99h-61zM268 -8q-93 0 -156.5 62t-63.5 153t63.5 153.5t156.5 62.5q92 0 155 -62.5t63 -153.5t-63 -153t-155 -62zM268 52q65 0 106 44t41 111t-41 111t-106 44q-66 0 -107.5 -44t-41.5 -111t41.5 -111t107.5 -44z" />
    <glyph glyph-name="otilde" unicode="&#xf5;" horiz-adv-x="534" 
d="M173 493l-52 4q3 53 26.5 82t60.5 29q32 0 69 -32q20 -18 28.5 -23t19.5 -5q30 0 36 58l52 -5q-3 -53 -25.5 -81.5t-60.5 -28.5q-31 0 -69 33q-20 18 -28.5 23t-19.5 5q-31 0 -37 -59zM268 -8q-93 0 -156.5 62t-63.5 153t63.5 153.5t156.5 62.5q92 0 155 -62.5t63 -153.5
t-63 -153t-155 -62zM268 52q65 0 106 44t41 111t-41 111t-106 44q-66 0 -107.5 -44t-41.5 -111t41.5 -111t107.5 -44z" />
    <glyph glyph-name="odieresis" unicode="&#xf6;" horiz-adv-x="534" 
d="M354 516q-18 0 -32.5 14t-14.5 32q0 19 14.5 32.5t32.5 13.5t32 -13.5t14 -32.5t-14 -32.5t-32 -13.5zM180 516q-18 0 -32 13.5t-14 32.5t14 32.5t32 13.5q19 0 33 -13.5t14 -32.5t-14 -32.5t-33 -13.5zM268 -8q-93 0 -156.5 62t-63.5 153t63.5 153.5t156.5 62.5
q92 0 155 -62.5t63 -153.5t-63 -153t-155 -62zM268 52q65 0 106 44t41 111t-41 111t-106 44q-66 0 -107.5 -44t-41.5 -111t41.5 -111t107.5 -44z" />
    <glyph glyph-name="divide" unicode="&#xf7;" 
d="M101 189q-21 0 -37.5 16t-16.5 39t16 38.5t38 15.5t38 -15.5t16 -38.5t-16 -39t-38 -16z" />
    <glyph glyph-name="oslash" unicode="&#xf8;" horiz-adv-x="534" 
d="M444 336q42 -58 42 -129q0 -91 -63 -153t-155 -62q-81 0 -142 50l-58 -54l-35 37l58 53q-43 57 -43 129q0 91 63.5 153.5t156.5 62.5q80 0 140 -50l57 52l35 -37zM138 122l225 208q-39 33 -95 33q-67 0 -109 -44t-42 -112q0 -45 21 -85zM396 291l-225 -207q41 -33 97 -33
q66 0 107.5 44t41.5 112q0 49 -21 84z" />
    <glyph glyph-name="ugrave" unicode="&#xf9;" horiz-adv-x="515" 
d="M231 498l-93 193h80l68 -193h-55zM225 -9q-70 0 -112.5 45.5t-42.5 123.5v254h70v-247q0 -112 102 -112q59 0 94 35.5t35 95.5v228h70v-414h-70l2 84q-20 -44 -59 -68.5t-89 -24.5z" />
    <glyph glyph-name="uacute" unicode="&#xfa;" horiz-adv-x="515" 
d="M228 498l68 193h80l-93 -193h-55zM225 -9q-70 0 -112.5 45.5t-42.5 123.5v254h70v-247q0 -112 102 -112q59 0 94 35.5t35 95.5v228h70v-414h-70l2 84q-20 -44 -59 -68.5t-89 -24.5z" />
    <glyph glyph-name="ucircumflex" unicode="&#xfb;" horiz-adv-x="515" 
d="M124 496l128 193h9l128 -193h-61l-71 99l-72 -99h-61zM225 -9q-70 0 -112.5 45.5t-42.5 123.5v254h70v-247q0 -112 102 -112q59 0 94 35.5t35 95.5v228h70v-414h-70l2 84q-20 -44 -59 -68.5t-89 -24.5z" />
    <glyph glyph-name="udieresis" unicode="&#xfc;" horiz-adv-x="515" 
d="M344 516q-18 0 -32.5 14t-14.5 32q0 19 14.5 32.5t32.5 13.5t32 -13.5t14 -32.5t-14 -32.5t-32 -13.5zM170 516q-18 0 -32 13.5t-14 32.5t14 32.5t32 13.5q19 0 33 -13.5t14 -32.5t-14 -32.5t-33 -13.5zM225 -9q-70 0 -112.5 45.5t-42.5 123.5v254h70v-247
q0 -112 102 -112q59 0 94 35.5t35 95.5v228h70v-414h-70l2 84q-20 -44 -59 -68.5t-89 -24.5z" />
    <glyph glyph-name="yacute" unicode="&#xfd;" horiz-adv-x="462" 
d="M205 498l68 193h80l-93 -193h-55zM95 -212l106 247l-176 379h77l117 -257q5 -12 9.5 -29.5t7.5 -29.5l2 -11q7 44 19 70l108 257h72l-270 -626h-72z" />
    <glyph glyph-name="thorn" unicode="&#xfe;" horiz-adv-x="552" 
d="M76 -212v934h70v-393q50 94 160 94q85 0 141.5 -61.5t56.5 -153.5q0 -93 -57 -154.5t-142 -61.5q-54 0 -96 26t-63 68v-298h-70zM289 53q65 0 104 43.5t39 111.5q0 67 -39 110t-104 43q-66 0 -106.5 -43t-40.5 -110q0 -68 40.5 -111.5t106.5 -43.5z" />
    <glyph glyph-name="ydieresis" unicode="&#xff;" horiz-adv-x="462" 
d="M317 516q-18 0 -32.5 14t-14.5 32q0 19 14.5 32.5t32.5 13.5t32 -13.5t14 -32.5t-14 -32.5t-32 -13.5zM143 516q-18 0 -32 13.5t-14 32.5t14 32.5t32 13.5q19 0 33 -13.5t14 -32.5t-14 -32.5t-33 -13.5zM95 -212l106 247l-176 379h77l117 -257q5 -12 9.5 -29.5t7.5 -29.5
l2 -11q7 44 19 70l108 257h72l-270 -626h-72z" />
    <glyph glyph-name="dotlessi" unicode="&#x131;" horiz-adv-x="222" 
d="M76 0v414h70v-414h-70z" />
    <glyph glyph-name="Lslash" unicode="&#x141;" horiz-adv-x="531" 
d="M96 0v199l-75 -29v65l75 29v416h73v-389l199 78v-65l-199 -79v-161h321v-64h-394z" />
    <glyph glyph-name="lslash" unicode="&#x142;" horiz-adv-x="267" 
d="M99 0v241l-85 -51v69l85 52v411h70v-371l88 54v-69l-88 -54v-282h-70z" />
    <glyph glyph-name="OE" unicode="&#x152;" horiz-adv-x="987" 
d="M412 0q-164 0 -261 94t-97 246q0 153 96.5 246.5t261.5 93.5h502v-64h-341v-319h304v-63h-304v-170h355v-64h-516zM418 65h83v550h-83q-141 0 -215 -74.5t-74 -200.5t74 -200.5t215 -74.5z" />
    <glyph glyph-name="oe" unicode="&#x153;" horiz-adv-x="881" 
d="M482 184q7 -61 47 -97t107 -36q82 0 131 55l43 -42q-64 -72 -173 -72q-68 0 -116.5 31t-71.5 84q-23 -52 -71 -83.5t-110 -31.5q-93 0 -156.5 62t-63.5 153t63.5 153.5t156.5 62.5q63 0 110.5 -31.5t70.5 -84.5q22 53 69 84.5t108 31.5q98 0 155 -67.5t53 -171.5h-352z
M483 237h281q-5 56 -40.5 91.5t-97.5 35.5q-58 0 -96.5 -34.5t-46.5 -92.5zM268 52q65 0 106 44t41 111t-41 111t-106 44q-66 0 -107.5 -44t-41.5 -111t41.5 -111t107.5 -44z" />
    <glyph glyph-name="Scaron" unicode="&#x160;" horiz-adv-x="531" 
d="M246 743l-128 193h61l71 -99l72 99h61l-128 -193h-9zM266 -8q-168 0 -237 138l60 32q28 -49 68.5 -77.5t106.5 -28.5q61 0 101 31.5t40 84.5q0 49 -30 80.5t-98 61.5l-54 25q-78 35 -114 76.5t-36 109.5q0 73 50.5 118t128.5 45q123 0 184 -102l-58 -36q-46 74 -126 74
q-50 0 -79 -26.5t-29 -70.5q0 -43 24 -68.5t84 -53.5l54 -25q89 -39 130 -86.5t41 -121.5q0 -83 -59 -131.5t-152 -48.5z" />
    <glyph glyph-name="scaron" unicode="&#x161;" horiz-adv-x="410" 
d="M193 488l-128 193h61l71 -99l72 99h61l-128 -193h-9zM213 -8q-64 0 -109.5 27t-67.5 69l54 31q42 -70 120 -70q42 0 65 16.5t23 45.5q0 31 -22.5 44.5t-85.5 31.5q-60 17 -92.5 43.5t-32.5 79.5q0 52 38.5 82.5t97.5 30.5q91 0 138 -67l-48 -37q-34 47 -90 47
q-33 0 -52.5 -14.5t-19.5 -38.5q0 -28 20 -41t78 -30q64 -17 100.5 -45t36.5 -82q0 -55 -38 -89t-113 -34z" />
    <glyph glyph-name="Ydieresis" unicode="&#x178;" horiz-adv-x="656" 
d="M414 771q-18 0 -32.5 14t-14.5 32q0 19 14.5 32.5t32.5 13.5t32 -13.5t14 -32.5t-14 -32.5t-32 -13.5zM240 771q-18 0 -32 13.5t-14 32.5t14 32.5t32 13.5q19 0 33 -13.5t14 -32.5t-14 -32.5t-33 -13.5zM294 0v213l-257 467h81l185 -338q7 -12 14 -29t11 -29l4 -11
q15 42 29 69l184 338h75l-252 -464v-216h-74z" />
    <glyph glyph-name="Zcaron" unicode="&#x17d;" horiz-adv-x="581" 
d="M302 743l-128 193h61l71 -99l72 99h61l-128 -193h-9zM39 0v11l380 605h-326v64h438v-11l-379 -605h381v-64h-494z" />
    <glyph glyph-name="zcaron" unicode="&#x17e;" horiz-adv-x="417" 
d="M220 488l-128 193h61l71 -99l72 99h61l-128 -193h-9zM32 0v10l239 346h-213v58h326v-11l-241 -345h236v-58h-347z" />
    <glyph glyph-name="florin" unicode="&#x192;" horiz-adv-x="358" 
d="M174 203l-47 -415h-68l47 415h-68v57h74l26 224q14 134 123 134q70 0 103 -54l-48 -39q-23 33 -52 33q-50 0 -58 -71l-26 -227h94v-57h-100z" />
    <glyph glyph-name="circumflex" unicode="&#x2c6;" horiz-adv-x="500" 
d="M117 496l128 193h9l128 -193h-61l-71 99l-72 -99h-61z" />
    <glyph glyph-name="caron" unicode="&#x2c7;" horiz-adv-x="500" 
d="M246 488l-128 193h61l71 -99l72 99h61l-128 -193h-9z" />
    <glyph glyph-name="breve" unicode="&#x2d8;" horiz-adv-x="500" 
d="M250 489q-56 0 -89.5 32t-41.5 84l56 10q16 -71 75 -71t75 71l56 -10q-8 -52 -41.5 -84t-89.5 -32z" />
    <glyph glyph-name="dotaccent" unicode="&#x2d9;" horiz-adv-x="500" 
d="M250 516q-19 0 -33 13t-14 33t14 33.5t33 13.5t33 -13.5t14 -33.5t-14 -33t-33 -13z" />
    <glyph glyph-name="ring" unicode="&#x2da;" horiz-adv-x="500" 
d="M250 484q-44 0 -74.5 29.5t-30.5 70.5q0 42 30.5 71.5t74.5 29.5t74.5 -29.5t30.5 -71.5q0 -41 -30.5 -70.5t-74.5 -29.5zM250 529q23 0 37.5 15t14.5 40t-14.5 40t-37.5 15t-37.5 -15t-14.5 -40t14.5 -40t37.5 -15z" />
    <glyph glyph-name="ogonek" unicode="&#x2db;" horiz-adv-x="500" 
d="M238 -232q-39 0 -66 23t-27 65q0 46 41 101l32 43h51l-36 -59q-31 -50 -31 -83q0 -20 11 -30.5t28 -10.5q30 0 51 35l44 -25q-30 -59 -98 -59z" />
    <glyph glyph-name="tilde" unicode="&#x2dc;" horiz-adv-x="500" 
d="M156 493l-52 4q3 53 26.5 82t60.5 29q32 0 69 -32q20 -18 28.5 -23t19.5 -5q30 0 36 58l52 -5q-3 -53 -25.5 -81.5t-60.5 -28.5q-31 0 -69 33q-20 18 -28.5 23t-19.5 5q-31 0 -37 -59z" />
    <glyph glyph-name="hungarumlaut" unicode="&#x2dd;" horiz-adv-x="500" 
d="M289 498l68 193h76l-89 -193h-55zM151 498l67 193h76l-88 -193h-55z" />
    <glyph glyph-name="Delta" unicode="&#x394;" 
d="M101 189q-21 0 -37.5 16t-16.5 39t16 38.5t38 15.5t38 -15.5t16 -38.5t-16 -39t-38 -16z" />
    <glyph glyph-name="Delta" unicode="&#x2206;" 
d="M101 189q-21 0 -37.5 16t-16.5 39t16 38.5t38 15.5t38 -15.5t16 -38.5t-16 -39t-38 -16z" />
    <glyph glyph-name="Omega" unicode="&#x3a9;" 
d="M101 189q-21 0 -37.5 16t-16.5 39t16 38.5t38 15.5t38 -15.5t16 -38.5t-16 -39t-38 -16z" />
    <glyph glyph-name="Omega" unicode="&#x2126;" 
d="M101 189q-21 0 -37.5 16t-16.5 39t16 38.5t38 15.5t38 -15.5t16 -38.5t-16 -39t-38 -16z" />
    <glyph glyph-name="pi" unicode="&#x3c0;" 
d="M101 189q-21 0 -37.5 16t-16.5 39t16 38.5t38 15.5t38 -15.5t16 -38.5t-16 -39t-38 -16z" />
    <glyph glyph-name="endash" unicode="&#x2013;" horiz-adv-x="394" 
d="M35 163v61h323v-61h-323z" />
    <glyph glyph-name="emdash" unicode="&#x2014;" horiz-adv-x="623" 
d="M35 163v61h553v-61h-553z" />
    <glyph glyph-name="quoteleft" unicode="&#x2018;" horiz-adv-x="199" 
d="M100 475q-21 0 -37 15.5t-16 36.5q0 17 13 41l55 112h38l-34 -104q13 -5 23 -18t10 -30q0 -22 -15.5 -37.5t-36.5 -15.5z" />
    <glyph glyph-name="quoteright" unicode="&#x2019;" horiz-adv-x="199" 
d="M46 482l34 104q-14 5 -23.5 18t-9.5 30q0 22 15.5 37.5t36.5 15.5t37 -15.5t16 -36.5q0 -13 -13 -41l-56 -112h-37z" />
    <glyph glyph-name="quotesinglbase" unicode="&#x201a;" horiz-adv-x="199" 
d="M46 -103l34 105q-14 4 -23.5 17t-9.5 31q0 21 15.5 36.5t36.5 15.5t37 -15.5t16 -36.5q0 -14 -13 -40l-56 -113h-37z" />
    <glyph glyph-name="quotedblleft" unicode="&#x201c;" horiz-adv-x="357" 
d="M258 475q-21 0 -37 15.5t-16 36.5q0 13 13 41l56 112h37l-34 -104q14 -5 23.5 -18t9.5 -30q0 -22 -15.5 -37.5t-36.5 -15.5zM100 475q-21 0 -37 15.5t-16 36.5q0 17 13 41l55 112h38l-34 -104q13 -5 23 -18t10 -30q0 -22 -15.5 -37.5t-36.5 -15.5z" />
    <glyph glyph-name="quotedblright" unicode="&#x201d;" horiz-adv-x="357" 
d="M204 482l34 104q-13 5 -23 18t-10 30q0 22 15.5 37.5t36.5 15.5t37 -15.5t16 -36.5q0 -17 -13 -41l-55 -112h-38zM46 482l34 104q-14 5 -23.5 18t-9.5 30q0 22 15.5 37.5t36.5 15.5t37 -15.5t16 -36.5q0 -13 -13 -41l-56 -112h-37z" />
    <glyph glyph-name="quotedblbase" unicode="&#x201e;" horiz-adv-x="357" 
d="M204 -103l34 105q-13 4 -23 17.5t-10 30.5q0 21 15.5 36.5t36.5 15.5t37 -15.5t16 -36.5q0 -17 -13 -40l-55 -113h-38zM46 -103l34 105q-14 4 -23.5 17t-9.5 31q0 21 15.5 36.5t36.5 15.5t37 -15.5t16 -36.5q0 -14 -13 -40l-56 -113h-37z" />
    <glyph glyph-name="dagger" unicode="&#x2020;" horiz-adv-x="337" 
d="M136 280v238h-93v58h93v104h65v-104h93v-58h-93v-238h-65z" />
    <glyph glyph-name="daggerdbl" unicode="&#x2021;" horiz-adv-x="337" 
d="M136 280v105h-93v54h93v82h-93v55h93v104h65v-104h93v-55h-93v-82h93v-54h-93v-105h-65z" />
    <glyph glyph-name="bullet" unicode="&#x2022;" horiz-adv-x="279" 
d="M139 168q-38 0 -66 27.5t-28 66.5q0 40 27.5 67.5t66.5 27.5t67 -27.5t28 -67.5q0 -39 -28 -66.5t-67 -27.5z" />
    <glyph glyph-name="ellipsis" unicode="&#x2026;" horiz-adv-x="616" 
d="M515 -7q-21 0 -37.5 16t-16.5 39t16 38.5t38 15.5t38 -15.5t16 -38.5t-16 -39t-38 -16zM308 -7q-21 0 -37.5 16t-16.5 39t16 38.5t38 15.5t38 -15.5t16 -38.5t-16 -39t-38 -16zM101 -7q-21 0 -37.5 16t-16.5 39t16 38.5t38 15.5t38 -15.5t16 -38.5t-16 -39t-38 -16z" />
    <glyph glyph-name="perthousand" unicode="&#x2030;" horiz-adv-x="1111" 
d="M178 218q-61 0 -105.5 42t-44.5 105t44.5 105t105.5 42t105 -42t44 -105t-44 -105t-105 -42zM191 0l315 504h70l-315 -504h-70zM934 -8q-61 0 -105 42t-44 104q0 63 44 105t105 42t105 -42t44 -105t-44 -104.5t-105 -41.5zM589 -8q-61 0 -105 41.5t-44 104.5t44 105
t105 42t105 -42t44 -105t-44 -104.5t-105 -41.5zM178 273q37 0 62.5 26t25.5 66q0 41 -25.5 66.5t-62.5 25.5t-63 -25.5t-26 -66.5q0 -40 26 -66t63 -26zM934 46q37 0 62.5 26t25.5 66t-25.5 66t-62.5 26q-36 0 -62 -26t-26 -66t26 -66t62 -26zM589 46q37 0 62.5 26t25.5 66
t-25.5 66t-62.5 26t-62.5 -26t-25.5 -66t25.5 -66t62.5 -26z" />
    <glyph glyph-name="guilsinglleft" unicode="&#x2039;" horiz-adv-x="242" 
d="M132 37l-94 159v8l94 157h72l-96 -161l96 -163h-72z" />
    <glyph glyph-name="guilsinglright" unicode="&#x203a;" horiz-adv-x="242" 
d="M38 37l96 162l-96 162h72l94 -158v-8l-94 -158h-72z" />
    <glyph glyph-name="fraction" unicode="&#x2044;" horiz-adv-x="351" 
d="M-17 0l315 504h70l-315 -504h-70z" />
    <glyph glyph-name="fraction" unicode="&#x2215;" horiz-adv-x="351" 
d="M-17 0l315 504h70l-315 -504h-70z" />
    <glyph glyph-name="Euro" unicode="&#x20ac;" horiz-adv-x="621" 
d="M113 283h-73v56h85q26 78 92.5 125.5t151.5 47.5q128 0 199 -94l-52 -40q-54 73 -147 73q-60 0 -105 -30t-66 -82h217v-56h-231q-2 -20 -2 -31q0 -12 2 -32h231v-56h-216q21 -52 66.5 -81.5t103.5 -29.5q97 0 154 76l51 -36q-66 -101 -205 -101q-84 0 -151 47t-93 125
h-85v56h73q-2 20 -2 32q0 11 2 31z" />
    <glyph glyph-name="trademark" unicode="&#x2122;" horiz-adv-x="725" 
d="M346 383v302h9l144 -161l143 161h9v-302h-54v187l-93 -111h-10l-94 111v-187h-54zM138 383v251h-90v46h234v-46h-90v-251h-54z" />
    <glyph glyph-name="partialdiff" unicode="&#x2202;" 
d="M101 189q-21 0 -37.5 16t-16.5 39t16 38.5t38 15.5t38 -15.5t16 -38.5t-16 -39t-38 -16z" />
    <glyph glyph-name="product" unicode="&#x220f;" 
d="M101 189q-21 0 -37.5 16t-16.5 39t16 38.5t38 15.5t38 -15.5t16 -38.5t-16 -39t-38 -16z" />
    <glyph glyph-name="summation" unicode="&#x2211;" horiz-adv-x="806" 
d="M440 1q28 -22 44 -33.5t43.5 -22t57.5 -10.5q59 0 100 45l49 -44q-56 -66 -148 -66q-39 0 -78.5 15.5t-59.5 29.5t-56 42q-28 21 -46 32.5t-46 22.5t-55 11q-74 0 -121 -73l-49 40q39 61 107 81q-61 45 -95 114.5t-34 154.5q0 152 101 250t248 98q148 0 249 -98t101 -250
q0 -140 -89 -233.5t-223 -105.5zM402 59q119 0 197 80t78 201q0 122 -78 202.5t-197 80.5q-118 0 -196 -80.5t-78 -202.5q0 -121 78 -201t196 -80z" />
    <glyph glyph-name="minus" unicode="&#x2212;" 
d="M101 189q-21 0 -37.5 16t-16.5 39t16 38.5t38 15.5t38 -15.5t16 -38.5t-16 -39t-38 -16z" />
    <glyph glyph-name="radical" unicode="&#x221a;" 
d="M101 189q-21 0 -37.5 16t-16.5 39t16 38.5t38 15.5t38 -15.5t16 -38.5t-16 -39t-38 -16z" />
    <glyph glyph-name="integral" unicode="&#x222b;" 
d="M101 189q-21 0 -37.5 16t-16.5 39t16 38.5t38 15.5t38 -15.5t16 -38.5t-16 -39t-38 -16z" />
    <glyph glyph-name="approxequal" unicode="&#x2248;" 
d="M101 189q-21 0 -37.5 16t-16.5 39t16 38.5t38 15.5t38 -15.5t16 -38.5t-16 -39t-38 -16z" />
    <glyph glyph-name="lessequal" unicode="&#x2264;" 
d="M101 189q-21 0 -37.5 16t-16.5 39t16 38.5t38 15.5t38 -15.5t16 -38.5t-16 -39t-38 -16z" />
    <glyph glyph-name="greaterequal" unicode="&#x2265;" 
d="M101 189q-21 0 -37.5 16t-16.5 39t16 38.5t38 15.5t38 -15.5t16 -38.5t-16 -39t-38 -16z" />
    <glyph glyph-name="lozenge" unicode="&#x25ca;" 
d="M101 189q-21 0 -37.5 16t-16.5 39t16 38.5t38 15.5t38 -15.5t16 -38.5t-16 -39t-38 -16z" />
    <glyph glyph-name="plusminus" horiz-adv-x="763" 
d="M101 0v355h-67v59h67v168q0 67 30.5 100t83.5 33q68 0 102 -44l-45 -44q-20 25 -50 25q-51 0 -51 -70v-168h186v152q0 80 47.5 124.5t116.5 44.5t115.5 -42t46.5 -123v-570h-70v565q0 107 -92 107q-43 0 -68.5 -26.5t-25.5 -80.5v-151h106v-59h-106v-355h-70v355h-186
v-355h-70z" />
    <glyph glyph-name="apple" horiz-adv-x="202" 
d="M101 189q-21 0 -37.5 16t-16.5 39t16 38.5t38 15.5t38 -15.5t16 -38.5t-16 -39t-38 -16z" />
    <glyph glyph-name="infinity" horiz-adv-x="759" 
d="M648 534q-20 0 -35 14t-15 35t15 35.5t35 14.5t35 -14.5t15 -35.5t-15 -35t-35 -14zM101 0v355h-67v59h67v168q0 67 30.5 100t83.5 33q68 0 102 -44l-45 -44q-20 25 -50 25q-51 0 -51 -70v-168h186v188q0 67 31 100t85 33q64 0 100 -45l-44 -42q-22 24 -51 24
q-51 0 -51 -70v-188h256v-414h-70v355h-186v-355h-70v355h-186v-355h-70z" />
    <glyph glyph-name="notequal" horiz-adv-x="572" 
d="M101 0v355h-67v59h67v168q0 67 30.5 100t83.5 33q68 0 102 -44l-45 -44q-20 25 -50 25q-51 0 -51 -70v-168h186v188q0 67 31 100t84 33q70 0 105 -51l-46 -41q-22 29 -53 29q-51 0 -51 -70v-188h111v-59h-111v-355h-70v355h-186v-355h-70z" />
    </font>
</defs>
</svg>
